Wpisz szukaną fraze, np: tytuł filmu, piosenki
 
 






Znaleziono 7742 wynikow, w 0.141 sec.

۞ Roxy Deville - Porn by actress - sajmon313 - Chomikuj.pl

http://chomikuj.pl/sajmon313/Porn%20by%2[...]       sajmon313  2017-02-17 15:07

۞ Roxy Deville - Porn by actress - sajmon313 - Chomikuj.pl

http://chomikuj.pl/sajmon313/Porn%20by%2[...]       sajmon313  2017-02-17 14:15

۞ Roxy Deville - Porn by actress - sajmon313 - Chomikuj.pl

http://chomikuj.pl/sajmon313/Porn%20by%2[...]       sajmon313  2017-02-17 09:40

۞ Roxy Deville - Porn by actress - sajmon313 - Chomikuj.pl

http://chomikuj.pl/sajmon313/Porn%20by%2[...]       sajmon313  2017-02-21 21:38

۞ Roxy Deville - Porn by actress - sajmon313 - Chomikuj.pl

http://chomikuj.pl/sajmon313/Porn%20by%2[...]       sajmon313  2017-02-22 03:00

۞ Roxy Deville - Porn by actress - sajmon313 - Chomikuj.pl

http://chomikuj.pl/sajmon313/Porn%20by%2[...]       sajmon313  2017-02-22 03:33

foo_dr.txt - Pink Floyd - The Dark Side Of The Moon (1973) [Reissue 2003] (FLAC 24-88.2) - xamix - http://chomikuj.pl
-------------------------------------------------------------------------------- DR Peak RMS Duration Track -------------------------------------------------------------------------------- DR10 -14.57 dB -27.80 dB 1:08 01-Speak To Me DR10 -6.13
http://docs7.chomikuj.pl/2311051454,PL,0[...]       2311051454,PL,0,0,foo_dr.txt  2017-02-17 20:49



۞ Roxy Deville - Porn by actress - sajmon313 - Chomikuj.pl

http://chomikuj.pl/sajmon313/Porn%20by%2[...]       sajmon313  2017-02-17 11:22

۞ Roxy Deville - Porn by actress - sajmon313 - Chomikuj.pl

http://chomikuj.pl/sajmon313/Porn%20by%2[...]       sajmon313  2017-02-17 12:02

۞ Roxy Deville - Porn by actress - sajmon313 - Chomikuj.pl

http://chomikuj.pl/sajmon313/Porn%20by%2[...]       sajmon313  2017-02-17 12:04

۞ Roxy Deville - Porn by actress - sajmon313 - Chomikuj.pl

http://chomikuj.pl/sajmon313/Porn%20by%2[...]       sajmon313  2017-02-22 01:37

۞ Roxy Deville - Porn by actress - sajmon313 - Chomikuj.pl

http://chomikuj.pl/sajmon313/Porn%20by%2[...]       sajmon313  2017-02-22 03:33

۞ Roxy Deville - Porn by actress - sajmon313 - Chomikuj.pl

http://chomikuj.pl/sajmon313/Porn%20by%2[...]       sajmon313  2017-02-22 03:35

۞ Roxy Deville - Porn by actress - sajmon313 - Chomikuj.pl

http://chomikuj.pl/sajmon313/Porn%20by%2[...]       sajmon313  2017-02-17 12:02



۞ Roxy Deville - Porn by actress - sajmon313 - Chomikuj.pl

http://chomikuj.pl/sajmon313/Porn%20by%2[...]       sajmon313  2017-02-17 14:18

۞ Roxy Deville - Porn by actress - sajmon313 - Chomikuj.pl

http://chomikuj.pl/sajmon313/Porn%20by%2[...]       sajmon313  2017-02-17 17:04

۞ Roxy Deville - Porn by actress - sajmon313 - Chomikuj.pl

http://chomikuj.pl/sajmon313/Porn%20by%2[...]       sajmon313  2017-02-22 03:25

۞ Roxy Deville - Porn by actress - sajmon313 - Chomikuj.pl

http://chomikuj.pl/sajmon313/Porn%20by%2[...]       sajmon313  2017-02-22 04:03

۞ Roxy Deville - Porn by actress - sajmon313 - Chomikuj.pl

http://chomikuj.pl/sajmon313/Porn%20by%2[...]       sajmon313  2017-02-22 03:33

۞ Roxy Deville - Porn by actress - sajmon313 - Chomikuj.pl

http://chomikuj.pl/sajmon313/Porn%20by%2[...]       sajmon313  2017-02-22 03:35

۞ Roxy Deville - Porn by actress - sajmon313 - Chomikuj.pl

http://chomikuj.pl/sajmon313/Porn%20by%2[...]       sajmon313  2017-02-22 03:33



۞ Roxy Deville - Porn by actress - sajmon313 - Chomikuj.pl

http://chomikuj.pl/sajmon313/Porn%20by%2[...]       sajmon313  2017-02-17 17:40

۞ Roxy Deville - Porn by actress - sajmon313 - Chomikuj.pl

http://chomikuj.pl/sajmon313/Porn%20by%2[...]       sajmon313  2017-02-22 03:32

۞ Roxy Deville - Porn by actress - sajmon313 - Chomikuj.pl

http://chomikuj.pl/sajmon313/Porn%20by%2[...]       sajmon313  2017-02-22 03:33

۞ Roxy Deville - Porn by actress - sajmon313 - Chomikuj.pl

http://chomikuj.pl/sajmon313/Porn%20by%2[...]       sajmon313  2017-02-22 05:53

۞ Roxy Deville - Porn by actress - sajmon313 - Chomikuj.pl

http://chomikuj.pl/sajmon313/Porn%20by%2[...]       sajmon313  2017-02-17 11:58

۞ Roxy Deville - Porn by actress - sajmon313 - Chomikuj.pl

http://chomikuj.pl/sajmon313/Porn%20by%2[...]       sajmon313  2017-02-17 15:06

۞ Roxy Deville - Porn by actress - sajmon313 - Chomikuj.pl

http://chomikuj.pl/sajmon313/Porn%20by%2[...]       sajmon313  2017-02-17 15:13



foo_dr.txt - Dead Can Dance - Spleen And Ideal (1985) [SACD] (2008 MFSL Remaster PCM Stereo) - malmag - http://chomikuj.pl
) -------------------------------------------------------------------------------- DR Peak RMS Duration Track -------------------------------------------------------------------------------- DR6 -0.26 dB -7.50 dB 3:57 01-De Profundis (Out Of The Depths Of Sorrow) DR7 -0.28 dB -8.51 dB 3:03 02
http://docs7.chomikuj.pl/4642039007,PL,0[...]       4642039007,PL,0,1,foo_dr.txt  2017-02-22 05:41

۞ Sativa Rose - Porn by actress - sajmon313 - Chomikuj.pl

http://chomikuj.pl/sajmon313/Porn+by+act[...]       sajmon313  2017-02-17 09:40

foo_dr.txt - Pink Floyd - Wish You Were Here (1975) VINYL RIP 24-96 FLAC - francoluca - http://chomikuj.pl
) -------------------------------------------------------------------------------- DR Peak RMS Duration Track -------------------------------------------------------------------------------- DR14 -0.70 dB -17.76 dB 13:41 01-Shine On You Crazy
http://docs5.chomikuj.pl/1943512660,PL,0[...]       1943512660,PL,0,0,foo_dr.txt  2017-02-17 15:57

downblouse loving Louisa Lockhart Db 5.wmv - soft video - Filmy dla Dorosłych - KilzoN2109 - Chomikuj.pl
. Czy chcesz zobaczyć zawartość tego folderu? Zaloguj się jeśli masz już konto. downblouse loving Louisa-Lockhart-Db-5.wmv KilzoN2109 / Filmy dla Dorosłych / soft video / downblouse loving Louisa-Lockhart-Db-5.wmv Download: downblouse
http://chomikuj.pl/KilzoN2109/Filmy+dla+[...]       KilzoN2109  2017-02-21 22:58

۞ Austin Kincaid - Porn by actress - sajmon313 - Chomikuj.pl

http://chomikuj.pl/sajmon313/Porn+by+act[...]       sajmon313  2017-02-17 09:40

A to historia testy klasa 6.PDF - zachomikowane - rzepik74 - Chomikuj.pl
foldery z plikami do pobrania 07 - Noelka 50 twarzy Grey'a atlases austria różne prezentacje biologia Bridget Jones Ciemniejsza strona Greya Cykl Poślubić wicehrabiego db-4uMaps db-cb-enrl db-FAA
http://chomikuj.pl/rzepik74/zachomikowan[...]       rzepik74  2017-02-17 12:26

Dragon Ball Movie 04 Sposób By Stać Się Silniejszym Lektor Pl.avi - DB 4 - Sposob by stac sie silniejszym - Dragon Ball - filmy pelnometrazowe - biblioteka-ebook-bajki - Chomikuj.pl
pelnometrazowe / DB 4 - Sposob by stac sie silniejszym / Dragon Ball Movie 04- Sposób By Stać Się Silniejszym Lektor Pl.avi Download: Dragon Ball Movie 04- Sposób By Stać Się Silniejszym Lektor Pl.avi Pobierz film 449,86 MB Długość
http://chomikuj.pl/biblioteka-ebook-bajk[...]       biblioteka-ebook-bajki  2017-02-22 04:50



۞ Ashley Roberts - Porn by actress - sajmon313 - Chomikuj.pl

http://chomikuj.pl/sajmon313/Porn+by+act[...]       sajmon313  2017-02-17 09:40

۞ Nicole Ray - Porn by actress - sajmon313 - Chomikuj.pl

http://chomikuj.pl/sajmon313/Porn%20by%2[...]       sajmon313  2017-02-17 14:15

۞ Zeina Heart - Porn by actress - sajmon313 - Chomikuj.pl

http://chomikuj.pl/sajmon313/Porn+by+act[...]       sajmon313  2017-02-17 09:40

۞ Jasmine Byrne - Porn by actress - sajmon313 - Chomikuj.pl

http://chomikuj.pl/sajmon313/Porn+by+act[...]       sajmon313  2017-02-17 09:40

۞ Kasey Chase - Porn by actress - sajmon313 - Chomikuj.pl

http://chomikuj.pl/sajmon313/Porn+by+act[...]       sajmon313  2017-02-17 09:40

۞ Natasha Nice - Porn by actress - sajmon313 - Chomikuj.pl

http://chomikuj.pl/sajmon313/Porn+by+act[...]       sajmon313  2017-02-17 09:40

۞ Nicole Ray - Porn by actress - sajmon313 - Chomikuj.pl

http://chomikuj.pl/sajmon313/Porn%20by%2[...]       sajmon313  2017-02-21 21:38

۞ Angelina Valentine - Porn by actress - sajmon313 - Chomikuj.pl

http://chomikuj.pl/sajmon313/Porn+by+act[...]       sajmon313  2017-02-22 01:15

Zamiana ciał (2011) PL.DVDRip.XviD.AC3 BiDA.3gp - Najnowsze filmy - Filmy - kolec1971 - Chomikuj.pl

http://chomikuj.pl/kolec1971/Filmy/Najno[...]       kolec1971  2017-02-17 21:09

۞ Nicole Ray - Porn by actress - sajmon313 - Chomikuj.pl

http://chomikuj.pl/sajmon313/Porn%20by%2[...]       sajmon313  2017-02-17 12:03

 
Pulub Chomikarka.pl na Facebook'u:
Ważne informacje: Strona Chomikarka.pl jest tylko i wyłącznie wyszukiwarką plików, która przeszukuje oraz indeksuje ogólnodostępne zasoby Internetu. Żaden ze znalezionych plików nie jest zapisywany na naszych serwerach.






Copyright © 2011-2017 Chomikarka.pl. Sitemap.   In cooperation with Yool project.